Star Wars Episode VI Return of the Jedi 1983 1080p BluRay X264-AMIABLE (download torrent) - TPB

Star Wars Episode VI Return of the Jedi 1983 1080p BluRay X264-AMIABLE 

Star Wars Episode VI Return of the Jedi 1983 1080p BluRay X264-AMIABLE
Type:
Movies DVDR
Files:
2
Size:
10137.6 MiB

Info:
Spoken language(s):
Tag(s):

Uploaded:
2016-01-26 08:44:02
By:
z0n321 VIP

Seeders:
1
Leechers:
2
 
Info Hash:
 
ABE48DE3212251024C542B6D4037524EAA2919E5




(Problems with magnets links are fixed by upgrading your torrent client!)
Star Wars Episode VI Return of the Jedi 1983 1080p BluRay X264-AMIABLE

After rescuing Han Solo from the palace of Jabba the Hutt, the rebels attempt to destroy the second Death Star, while Luke struggles to make Vader shake off of the dark side of the Force.


							 `--. / '-, -' .' Star.Wars.Episode.VI.Return.of.the.Jedi.1983.PROPER.RERIP.1080p.BluRay.X264-AMIABLE
 .==,=; `-,.;--' 
 / ,' _;--;| Date .....: 15th September 2011
 /_...=' you are my Runtime ..: 02:14:47
 || .==,=. Size .....: 10080mb
 ||/ '.\ Video ....: 1920x824 (X264 @ 23.976fps)
 ,||`'=...__\ Bitrate ..: 8940kbps
 || Audio ....: DTS 1509kbps
 sweetest downfall.. Source ...: Retail Blu-Ray
 ||, Lang .....: English 
 || Subs .....: English / French / Spanish / Portuguese / Dutch / Swedish / Norwegian / Danish / Finnish 
 ,|| IMDB .....: http://www.imdb.com/title/tt0086190/
 || Rating ...: 8.3/10 (250,026 votes)
 I loved you first Screens ..: Opening Week - $30,490,619 (USA) (30 May 1983) (1 Screen)
 || Genre ....: Action | Adventure | Family | Fantasy | Sci-Fi 
 ||, Director .: George Lucas
 || Cast .....: Mark Hamill, Harrison Ford, Carrie Fisher

 Notes ....: THUGLINE release is ref4 instead of ref5 and missing the first 2m25s. 
 Rerip reason is cause we found some pixelations in a few spots, those 
 seem to originate from the ripped source m2ts files and not an encode issue,
 so our best bet is residues from bd+ removal, bad disc or who knows...this one
 is from a fresh disc and seems fine. 

Screens:
http://imagecurl.com/images/75394813327170839114_thumb.png
http://imagecurl.com/images/64559116098386142281_thumb.png
http://imagecurl.com/images/14503151221263788222_thumb.png
http://imagecurl.com/images/44495635346827228294_thumb.png
http://imagecurl.com/images/87623187118402772601_thumb.png
http://imagecurl.com/images/99715706724106164206_thumb.png

[mediainfo]

Video
ID : 1
Format : AVC
Format/Info : Advanced Video Codec
Format profile : [email protected]
Format settings, CABAC : Yes
Format settings, ReFrames : 5 frames
Codec ID : V_MPEG4/ISO/AVC
Duration : 2h 14mn
Bit rate : 8 940 Kbps
Width : 1 920 pixels
Height : 824 pixels
Display aspect ratio : 2.35:1
Frame rate mode : Constant
Frame rate : 23.976 fps
Color space : YUV
Chroma subsampling : 4:2:0
Bit depth : 8 bits
Scan type : Progressive
Bits/(Pixel*Frame) : 0.236
Stream size : 8.22 GiB (84%)
Writing library : x264 core 116 r2074 2641b9e
Encoding settings : cabac=1 / ref=5 / deblock=1:0:0 / analyse=0x3:0x113 / me=umh / subme=8 / psy=1 / psy_rd=1.00:0.00 / mixed_ref=1 / me_range=16 / chroma_me=1 / trellis=1 / 8x8dct=1 / cqm=0 / deadzone=21,11 / fast_pskip=1 / chroma_qp_offset=-2 / threads=12 / sliced_threads=0 / nr=0 / decimate=1 / interlaced=0 / bluray_compat=0 / constrained_intra=0 / bframes=3 / b_pyramid=2 / b_adapt=2 / b_bias=0 / direct=3 / weightb=1 / open_gop=0 / weightp=2 / keyint=240 / keyint_min=24 / scenecut=40 / intra_refresh=0 / rc_lookahead=50 / rc=2pass / mbtree=1 / bitrate=8940 / ratetol=1.0 / qcomp=0.60 / qpmin=0 / qpmax=69 / qpstep=4 / cplxblur=20.0 / qblur=0.5 / ip_ratio=1.40 / aq=1:1.00
Language : English
Default : Yes
Forced : No

Audio
ID : 2
Format : DTS
Format/Info : Digital Theater Systems
Format profile : ES
Mode : 16
Format settings, Endianness : Big
Codec ID : A_DTS
Duration : 2h 14mn
Bit rate mode : Constant
Bit rate : 1 509 Kbps
Channel(s) : 7 channels / 6 channels
Channel positions : Front: L C R, Side: L R, Back: C, LFE / Front: L C R, Side: L R, LFE
Sampling rate : 48.0 KHz
Bit depth : 24 bits
Compression mode : Lossy
Stream size : 1.42 GiB (14%)
Language : English
Default : Yes
Forced : No

Text #1
ID : 3
Format : UTF-8
Codec ID : S_TEXT/UTF8
Codec ID/Info : UTF-8 Plain Text
Language : English
Default : Yes
Forced : No

Text #2
ID : 4
Format : UTF-8
Codec ID : S_TEXT/UTF8
Codec ID/Info : UTF-8 Plain Text
Language : English
Default : No
Forced : No

Menu
00:00:00.000 : en:00:00:00.000
00:00:21.188 : en:00:00:21.188
00:01:55.115 : en:00:01:55.115
00:04:58.465 : en:00:04:58.465
00:08:10.907 : en:00:08:10.907
00:12:21.908 : en:00:12:21.908
00:14:22.028 : en:00:14:22.028
00:17:36.013 : en:00:17:36.013
00:22:10.037 : en:00:22:10.037
00:25:08.340 : en:00:25:08.340
00:29:37.359 : en:00:29:37.359
00:31:29.012 : en:00:31:29.012
00:37:44.471 : en:00:37:44.471
00:39:32.245 : en:00:39:32.245
00:45:17.423 : en:00:45:17.423
00:48:23.400 : en:00:48:23.400
00:51:36.010 : en:00:51:36.010
00:53:32.668 : en:00:53:32.668
00:54:25.095 : en:00:54:25.095
00:56:55.245 : en:00:56:55.245
00:58:43.812 : en:00:58:43.812
01:02:41.716 : en:01:02:41.716
01:06:19.267 : en:01:06:19.267
01:07:47.480 : en:01:07:47.480
01:12:01.108 : en:01:12:01.108
01:15:52.673 : en:01:15:52.673
01:18:14.815 : en:01:18:14.815
01:22:30.404 : en:01:22:30.404
01:26:06.870 : en:01:26:06.870
01:26:52.082 : en:01:26:52.082
01:27:50.891 : en:01:27:50.891
01:30:04.524 : en:01:30:04.524
01:33:19.135 : en:01:33:19.135
01:36:41.421 : en:01:36:41.421
01:40:25.186 : en:01:40:25.186
01:42:23.179 : en:01:42:23.179
01:44:27.803 : en:01:44:27.803
01:45:26.946 : en:01:45:26.946
01:48:42.433 : en:01:48:42.433
01:50:40.634 : en:01:50:40.634
01:51:37.107 : en:01:51:37.107
01:54:37.120 : en:01:54:37.120
01:55:07.859 : en:01:55:07.859
01:55:57.492 : en:01:55:57.492
01:57:40.178 : en:01:57:40.178
01:59:34.167 : en:01:59:34.167
02:01:58.853 : en:02:01:58.853
02:04:50.566 : en:02:04:50.566
02:05:27.437 : en:02:05:27.437
02:07:56.043 : en:02:07:56.043

[/mediainfo]
						
									

Comments