A Perfect Day 2015 720p WEB-DL XviD AC3-FGT (download torrent) - TPB

A Perfect Day 2015 720p WEB-DL XviD AC3-FGT 

A Perfect Day 2015 720p WEB-DL XviD AC3-FGT
Type:
Movies
Files:
2
Size:
3174.4 MiB

Info:
Spoken language(s):
English
Tag(s):

Uploaded:
2016-01-26 08:44:16
By:
z0n321 VIP

Seeders:
1
Leechers:
0
 
Info Hash:
 
FE6E4291EE86199F17D7F66940E71D3CD2DC4E45




(Problems with magnets links are fixed by upgrading your torrent client!)
A Perfect Day 2015 720p WEB-DL XviD AC3-FGT

A group of aid workers work to resolve a crisis in an armed conflict zone.


							

https://rarbg.to/


http://imagecurl.com/images/18628384626113547413_thumb.png
http://imagecurl.com/images/51563179597663285719_thumb.png
http://imagecurl.com/images/42695534337459109974_thumb.png
http://imagecurl.com/images/30764032208224180880_thumb.png
http://imagecurl.com/images/43258728455785007948_thumb.png
http://imagecurl.com/images/45449961451275514318_thumb.png



[mediainfo]
Video
ID : 0
Format : MPEG-4 Visual
Format profile : [email protected]
Format settings, BVOP : No
Format settings, QPel : No
Format settings, GMC : No warppoints
Format settings, Matrix : Default (H.263)
Codec ID : XVID
Codec ID/Hint : XviD
Duration : 1h 45mn
Bit rate : 3 794 Kbps
Width : 1 280 pixels
Height : 534 pixels
Display aspect ratio : 2.40:1
Frame rate : 24.000 fps
Color space : YUV
Chroma subsampling : 4:2:0
Bit depth : 8 bits
Scan type : Progressive
Compression mode : Lossy
Bits/(Pixel*Frame) : 0.231
Stream size : 2.80 GiB (91%)
Writing library : Lavc56.13.100

Audio
ID : 1
Format : AC-3
Format/Info : Audio Coding 3
Mode extension : CM (complete main)
Format settings, Endianness : Big
Codec ID : 2000
Duration : 1h 45mn
Bit rate mode : Constant
Bit rate : 384 Kbps
Channel(s) : 6 channels
Channel positions : Front: L C R, Side: L R, LFE
Sampling rate : 48.0 KHz
Frame rate : 31.250 fps (1536 spf)
Compression mode : Lossy
Stream size : 291 MiB (9%)
Alignment : Aligned on interleaves
Interleave, duration : 42 ms (1.00 video frame)
Interleave, preload duration : 512 ms



[/mediainfo]

						
									

Comments