Freeheld 2015 WEB-DL x264-RARBG (download torrent) - TPB

Freeheld 2015 WEB-DL x264-RARBG 

Freeheld 2015 WEB-DL x264-RARBG
Type:
Movies
Files:
2
Size:
901.03  MiB

Info:
Spoken language(s):
English
Tag(s):

Uploaded:
2016-01-26 08:44:17
By:
z0n321 VIP

Seeders:
0
Leechers:
0
 
Info Hash:
 
953064C49B0C1C6F960FD6E16D7964A8607867B5


" width="622" height="51" frameborder="0" scrolling="no"> ?>

(Problems with magnets links are fixed by upgrading your torrent client!)
Freeheld 2015 WEB-DL x264-RARBG

New Jersey car mechanic Stacie Andree and her police detective girlfriend Laurel Hester both battle to secure Hester's pension benefits after she was diagnosed with a terminal illness.


							
https://rarbg.to
Freeheld.2015.WEB-DL.x264-RARBG

//dyncdn.me/posters2/9/953064c49b0c1c6f960fd6e16d7964a8607867b5.jpg
Screens :

http://imagecurl.com/images/66121492736093495234_thumb.png

http://imagecurl.com/images/26448993384958183096_thumb.png

http://imagecurl.com/images/46854040694290270165_thumb.png

http://imagecurl.com/images/72481461275487950557_thumb.png

http://imagecurl.com/images/96065300000341783348_thumb.png

http://imagecurl.com/images/94658693592241782287_thumb.png
Mediainfo :

Video
ID : 1
Format : AVC
Format/Info : Advanced Video Codec
Format profile : [email protected]
Format settings, CABAC : Yes
Format settings, ReFrames : 5 frames
Codec ID : avc1
Codec ID/Info : Advanced Video Coding
Duration : 1h 43mn
Bit rate : 1 100 Kbps
Width : 720 pixels
Height : 384 pixels
Display aspect ratio : 1.85:1
Original display aspect ratio : 1.85:1
Frame rate mode : Constant
Frame rate : 23.976 (23976/1000) fps
Color space : YUV
Chroma subsampling : 4:2:0
Bit depth : 8 bits
Scan type : Progressive
Bits/(Pixel*Frame) : 0.166
Stream size : 801 MiB (89%)
Title : Freeheld.2015.WEB-DL.x264-RARBG
Writing library : x264 core 148 r2601 a0cd7d3
Encoding settings : cabac=1 / ref=5 / deblock=1:-2:-2 / analyse=0x3:0x113 / me=umh / subme=8 / psy=1 / psy_rd=0.90:0.00 / mixed_ref=1 / me_range=16 / chroma_me=1 / trellis=1 / 8x8dct=1 / cqm=0 / deadzone=21,11 / fast_pskip=1 / chroma_qp_offset=-2 / threads=8 / lookahead_threads=2 / sliced_threads=0 / nr=0 / decimate=1 / interlaced=0 / bluray_compat=0 / constrained_intra=0 / bframes=3 / b_pyramid=2 / b_adapt=2 / b_bias=0 / direct=3 / weightb=1 / open_gop=0 / weightp=2 / keyint=250 / keyint_min=25 / scenecut=40 / intra_refresh=0 / rc_lookahead=50 / rc=abr / mbtree=1 / bitrate=1100 / ratetol=1.0 / qcomp=0.60 / qpmin=0 / qpmax=69 / qpstep=4 / vbv_maxrate=31250 / vbv_bufsize=31250 / nal_hrd=none / filler=0 / ip_ratio=1.40 / aq=1:1.00
Language : English

Audio
ID : 2
Format : AAC
Format/Info : Advanced Audio Codec
Format profile : LC
Codec ID : 40
Duration : 1h 43mn
Duration_LastFrame : 43ms
Bit rate mode : Variable
Bit rate : 128 Kbps
Maximum bit rate : 31.3 Mbps
Channel(s) : 2 channels
Channel positions : Front: L R
Sampling rate : 48.0 KHz
Frame rate : 46.875 fps (1024 spf)
Compression mode : Lossy
Stream size : 94.6 MiB (11%)
Title : Freeheld.2015.WEB-DL.x264-RARBG
Language : English
Default : Yes
Alternate group : 1



						
									

Comments