Princess of Thieves 2001 720p BluRay H264 AAC-RARBG (download torrent) - TPB

Princess of Thieves 2001 720p BluRay H264 AAC-RARBG 

Princess of Thieves 2001 720p BluRay H264 AAC-RARBG
Type:
HD - Movies
Files:
2
Size:
1085.44 MiB

Info:
Spoken language(s):
English
Tag(s):

Uploaded:
2016-01-26 08:44:18
By:
z0n321 VIP

Seeders:
0
Leechers:
1
 
Info Hash:
 
4C40575734C53D526F33CA978428EC6E0940809F




(Problems with magnets links are fixed by upgrading your torrent client!)
Princess of Thieves 2001 720p BluRay H264 AAC-RARBG

Story of Robin Hood's daughter Gwyn who takes up his role after he is captured by Prince John. King Richard is dead and his son Philip is the rightful heir, but he is in France and too afraid to face John. Can Gwyn find Philip and convince him to fight John and free her father?


							
https://rarbg.to
Princess.of.Thieves.2001.720p.BluRay.H264.AAC-RARBG

//dyncdn.me/posters2/4/4c40575734c53d526f33ca978428ec6e0940809f.jpg
Screens :

http://imagecurl.com/images/79162090828702738782_thumb.png

http://imagecurl.com/images/13519766002131575340_thumb.png

http://imagecurl.com/images/89826519138848585115_thumb.png

http://imagecurl.com/images/41021502630773970029_thumb.png

http://imagecurl.com/images/89234550586593116482_thumb.png
Mediainfo :

Video
ID : 1
Format : AVC
Format/Info : Advanced Video Codec
Format profile : [email protected]
Format settings, CABAC : Yes
Format settings, ReFrames : 4 frames
Codec ID : avc1
Codec ID/Info : Advanced Video Coding
Duration : 1h 27mn
Bit rate : 1 500 Kbps
Width : 1 280 pixels
Height : 696 pixels
Display aspect ratio : 1.85:1
Frame rate mode : Constant
Frame rate : 23.976 (23976/1000) fps
Color space : YUV
Chroma subsampling : 4:2:0
Bit depth : 8 bits
Scan type : Progressive
Bits/(Pixel*Frame) : 0.070
Stream size : 942 MiB (87%)
Writing library : x264 core 148 r2638M 7599210
Encoding settings : cabac=1 / ref=4 / deblock=1:-1:-1 / analyse=0x3:0x113 / me=umh / subme=9 / psy=1 / psy_rd=1.00:0.15 / mixed_ref=1 / me_range=24 / chroma_me=1 / trellis=2 / 8x8dct=1 / cqm=0 / deadzone=21,11 / fast_pskip=1 / chroma_qp_offset=-3 / threads=32 / lookahead_threads=4 / sliced_threads=0 / nr=0 / decimate=1 / interlaced=0 / bluray_compat=0 / constrained_intra=0 / bframes=3 / b_pyramid=2 / b_adapt=2 / b_bias=0 / direct=3 / weightb=1 / open_gop=0 / weightp=2 / keyint=250 / keyint_min=25 / scenecut=40 / intra_refresh=0 / rc_lookahead=50 / rc=2pass / mbtree=1 / bitrate=1500 / ratetol=1.0 / qcomp=0.60 / qpmin=0 / qpmax=69 / qpstep=4 / cplxblur=20.0 / qblur=0.5 / vbv_maxrate=31250 / vbv_bufsize=31250 / nal_hrd=none / filler=0 / ip_ratio=1.40 / aq=3:1.00
Encoded date : UTC 2016-01-20 19:42:05
Tagged date : UTC 2016-01-20 19:42:05

Audio
ID : 2
Format : AAC
Format/Info : Advanced Audio Codec
Format profile : LC
Codec ID : 40
Duration : 1h 27mn
Bit rate mode : Constant
Bit rate : 224 Kbps
Channel(s) : 2 channels
Channel(s)_Original : 6 channels
Channel positions : Front: L C R, Side: L R, LFE
Sampling rate : 48.0 KHz
Frame rate : 46.875 fps (1024 spf)
Compression mode : Lossy
Stream size : 140 MiB (13%)
Language : English
Default : Yes
Alternate group : 1
Encoded date : UTC 2016-01-20 19:42:05
Tagged date : UTC 2016-01-20 19:42:05



						
									

Comments