The Wannabe 2015 1080p BluRay H264 AAC-RARBG (download torrent) - TPB

The Wannabe 2015 1080p BluRay H264 AAC-RARBG 

The Wannabe 2015 1080p BluRay H264 AAC-RARBG
Type:
HD - Movies
Files:
2
Size:
1771.52 MiB

Info:
Spoken language(s):
English
Tag(s):

Uploaded:
2016-01-26 08:44:19
By:
z0n321 VIP

Seeders:
0
Leechers:
2
 
Info Hash:
 
75AAB65A47A479001E9DAD2290283E09FB3B5F3E




(Problems with magnets links are fixed by upgrading your torrent client!)
The Wannabe 2015 1080p BluRay H264 AAC-RARBG

Obsessed with mob culture, and desperate to fit in, Thomas sets out to fix the 1992 trial of John Gotti. He believes if the plan is executed, it will put him at the center of all that he idolizes. The plot is foiled, setting off events worthy of mob lore. The Wannabe intertwines real people and true events, past and present, with fantasy.


							
https://rarbg.to
The.Wannabe.2015.1080p.BluRay.H264.AAC-RARBG

//dyncdn.me/posters2/7/75aab65a47a479001e9dad2290283e09fb3b5f3e.jpg
Screens :

http://imagecurl.com/images/63649840202708519498_thumb.png

http://imagecurl.com/images/19981233595272334645_thumb.png

http://imagecurl.com/images/26206166698258972138_thumb.png

http://imagecurl.com/images/71782910532633538240_thumb.png

http://imagecurl.com/images/69880710604735116703_thumb.png
Mediainfo :

Video
ID : 1
Format : AVC
Format/Info : Advanced Video Codec
Format profile : [email protected]
Format settings, CABAC : Yes
Format settings, ReFrames : 4 frames
Codec ID : avc1
Codec ID/Info : Advanced Video Coding
Duration : 1h 30mn
Bit rate : 2 500 Kbps
Width : 1 920 pixels
Height : 800 pixels
Display aspect ratio : 2.40:1
Frame rate mode : Constant
Frame rate : 23.976 (23976/1000) fps
Color space : YUV
Chroma subsampling : 4:2:0
Bit depth : 8 bits
Scan type : Progressive
Bits/(Pixel*Frame) : 0.068
Stream size : 1.58 GiB (92%)
Writing library : x264 core 148 r2597M e86f3a1
Encoding settings : cabac=1 / ref=4 / deblock=1:-1:-1 / analyse=0x3:0x113 / me=umh / subme=9 / psy=1 / psy_rd=1.00:0.15 / mixed_ref=1 / me_range=24 / chroma_me=1 / trellis=2 / 8x8dct=1 / cqm=0 / deadzone=21,11 / fast_pskip=1 / chroma_qp_offset=-3 / threads=32 / lookahead_threads=4 / sliced_threads=0 / nr=0 / decimate=1 / interlaced=0 / bluray_compat=0 / constrained_intra=0 / bframes=3 / b_pyramid=2 / b_adapt=2 / b_bias=0 / direct=3 / weightb=1 / open_gop=0 / weightp=2 / keyint=250 / keyint_min=25 / scenecut=40 / intra_refresh=0 / rc_lookahead=50 / rc=2pass / mbtree=1 / bitrate=2500 / ratetol=1.0 / qcomp=0.60 / qpmin=0 / qpmax=69 / qpstep=4 / cplxblur=20.0 / qblur=0.5 / vbv_maxrate=31250 / vbv_bufsize=31250 / nal_hrd=none / filler=0 / ip_ratio=1.40 / aq=3:1.00
Encoded date : UTC 2016-01-20 22:46:10
Tagged date : UTC 2016-01-20 22:46:10

Audio
ID : 2
Format : AAC
Format/Info : Advanced Audio Codec
Format profile : LC
Codec ID : 40
Duration : 1h 30mn
Bit rate mode : Constant
Bit rate : 224 Kbps
Channel(s) : 2 channels
Channel(s)_Original : 6 channels
Channel positions : Front: L C R, Side: L R, LFE
Sampling rate : 48.0 KHz
Frame rate : 46.875 fps (1024 spf)
Compression mode : Lossy
Stream size : 145 MiB (8%)
Language : English
Default : Yes
Alternate group : 1
Encoded date : UTC 2016-01-20 22:46:10
Tagged date : UTC 2016-01-20 22:46:10



						
									

Comments