The Pardon 2013 720p BluRay H264 AAC-RARBG (download torrent) - TPB

The Pardon 2013 720p BluRay H264 AAC-RARBG 

The Pardon 2013 720p BluRay H264 AAC-RARBG
Type:
HD - Movies
Files:
2
Size:
1413.12 MiB

Info:
Spoken language(s):
English
Tag(s):

Uploaded:
2016-01-26 08:44:19
By:
z0n321 VIP

Seeders:
0
Leechers:
0
 
Info Hash:
 
D282B449E245C383A717E16372FDDECED309306E




(Problems with magnets links are fixed by upgrading your torrent client!)
The Pardon 2013 720p BluRay H264 AAC-RARBG

The true story of Toni Jo Henry, a woman tried for the crime of murder in 1942 in the state of Louisiana. Toni Jo, a product of childhood abuse and neglect, briefly discovers love and happiness that soon turns to despair when her husband Cowboy is sent to prison and she embarks on an ill-fated plan with an accomplice Arkie to free him. Because of her beauty, Toni Jo instantly becomes a notorious celebrity, drawing the unparalleled media attention of two highly publicized and sensational murder trials. Her story is a story of hope, a story of love and a story of redemption, as Toni Jo discovers the true strength within herself and, with the help of a priest, Father Richard is able to face her life with a calm and peace that defies explanation.


							
https://rarbg.to
The.Pardon.2013.720p.BluRay.H264.AAC-RARBG

//dyncdn.me/posters2/d/d282b449e245c383a717e16372fddeced309306e.jpg
Screens :

http://imagecurl.com/images/31948789333957813910_thumb.png

http://imagecurl.com/images/80587078360867854858_thumb.png

http://imagecurl.com/images/56249077173765787285_thumb.png

http://imagecurl.com/images/20831294775494077902_thumb.png

http://imagecurl.com/images/44891084341997598870_thumb.png
Mediainfo :

Video
ID : 1
Format : AVC
Format/Info : Advanced Video Codec
Format profile : [email protected]
Format settings, CABAC : Yes
Format settings, ReFrames : 4 frames
Codec ID : avc1
Codec ID/Info : Advanced Video Coding
Duration : 1h 53mn
Bit rate : 1 500 Kbps
Width : 1 280 pixels
Height : 544 pixels
Display aspect ratio : 2.35:1
Frame rate mode : Constant
Frame rate : 23.976 (23976/1000) fps
Color space : YUV
Chroma subsampling : 4:2:0
Bit depth : 8 bits
Scan type : Progressive
Bits/(Pixel*Frame) : 0.090
Stream size : 1.19 GiB (87%)
Writing library : x264 core 148 r2597M e86f3a1
Encoding settings : cabac=1 / ref=4 / deblock=1:-1:-1 / analyse=0x3:0x113 / me=umh / subme=9 / psy=1 / psy_rd=1.00:0.15 / mixed_ref=1 / me_range=24 / chroma_me=1 / trellis=2 / 8x8dct=1 / cqm=0 / deadzone=21,11 / fast_pskip=1 / chroma_qp_offset=-3 / threads=32 / lookahead_threads=4 / sliced_threads=0 / nr=0 / decimate=1 / interlaced=0 / bluray_compat=0 / constrained_intra=0 / bframes=3 / b_pyramid=2 / b_adapt=2 / b_bias=0 / direct=3 / weightb=1 / open_gop=0 / weightp=2 / keyint=250 / keyint_min=25 / scenecut=40 / intra_refresh=0 / rc_lookahead=50 / rc=2pass / mbtree=1 / bitrate=1500 / ratetol=1.0 / qcomp=0.60 / qpmin=0 / qpmax=69 / qpstep=4 / cplxblur=20.0 / qblur=0.5 / vbv_maxrate=31250 / vbv_bufsize=31250 / nal_hrd=none / filler=0 / ip_ratio=1.40 / aq=3:1.00
Encoded date : UTC 2016-01-23 02:44:07
Tagged date : UTC 2016-01-23 02:44:07

Audio
ID : 2
Format : AAC
Format/Info : Advanced Audio Codec
Format profile : LC
Codec ID : 40
Duration : 1h 53mn
Duration_LastFrame : 32ms
Bit rate mode : Constant
Bit rate : 224 Kbps
Channel(s) : 2 channels
Channel(s)_Original : 6 channels
Channel positions : Front: L C R, Side: L R, LFE
Sampling rate : 48.0 KHz
Frame rate : 46.875 fps (1024 spf)
Compression mode : Lossy
Stream size : 182 MiB (13%)
Language : English
Default : Yes
Alternate group : 1
Encoded date : UTC 2016-01-23 02:44:07
Tagged date : UTC 2016-01-23 02:44:07



						
									

Comments