Maze Runner The Scorch Trials 2015 720p BluRay H264 AAC-RARBG (download torrent) - TPB

Maze Runner The Scorch Trials 2015 720p BluRay H264 AAC-RARBG 

Maze Runner The Scorch Trials 2015 720p BluRay H264 AAC-RARBG
Type:
HD - Movies
Files:
2
Size:
1638.4 MiB

Info:
Spoken language(s):
English
Tag(s):

Uploaded:
2016-01-26 08:44:29
By:
z0n321 VIP

Seeders:
1
Leechers:
0
 
Info Hash:
 
05D024DED956A244A657D12472B2DF2864E97051




(Problems with magnets links are fixed by upgrading your torrent client!)
Maze Runner The Scorch Trials 2015 720p BluRay H264 AAC-RARBG

The Gladers have escaped the Maze, but now they face a new set of challenges on the open roads of a world ravaged by solar flares and disease.
Sequel to The Maze Runner (2014)


							https://rarbg.to
Maze.Runner.The.Scorch.Trials.2015.720p.BluRay.H264.AAC-RARBG

//dyncdn.me/posters2/0/05d024ded956a244a657d12472b2df2864e97051.jpg



Screens :

http://imagecurl.com/images/40041910063245288227_thumb.png

http://imagecurl.com/images/28842061676889259362_thumb.png

http://imagecurl.com/images/19131160918638373487_thumb.png

http://imagecurl.com/images/77834846911509489043_thumb.png

http://imagecurl.com/images/81259854034092539251_thumb.png



Mediainfo :

Video
ID : 1
Format : AVC
Format/Info : Advanced Video Codec
Format profile : [email protected]
Format settings, CABAC : Yes
Format settings, ReFrames : 4 frames
Codec ID : avc1
Codec ID/Info : Advanced Video Coding
Duration : 2h 11mn
Bit rate : 1 500 Kbps
Width : 1 280 pixels
Height : 536 pixels
Display aspect ratio : 2.40:1
Frame rate mode : Constant
Frame rate : 23.976 fps
Color space : YUV
Chroma subsampling : 4:2:0
Bit depth : 8 bits
Scan type : Progressive
Bits/(Pixel*Frame) : 0.091
Stream size : 1.38 GiB (87%)
Writing library : x264 core 148 r2597M e86f3a1
Encoding settings : cabac=1 / ref=4 / deblock=1:-1:-1 / analyse=0x3:0x113 / me=umh / subme=9 / psy=1 / psy_rd=1.00:0.15 / mixed_ref=1 / me_range=24 / chroma_me=1 / trellis=2 / 8x8dct=1 / cqm=0 / deadzone=21,11 / fast_pskip=1 / chroma_qp_offset=-3 / threads=32 / lookahead_threads=4 / sliced_threads=0 / nr=0 / decimate=1 / interlaced=0 / bluray_compat=0 / constrained_intra=0 / bframes=3 / b_pyramid=2 / b_adapt=1 / b_bias=0 / direct=1 / weightb=1 / open_gop=0 / weightp=2 / keyint=250 / keyint_min=25 / scenecut=40 / intra_refresh=0 / rc_lookahead=50 / rc=2pass / mbtree=1 / bitrate=1500 / ratetol=1.0 / qcomp=0.60 / qpmin=0 / qpmax=69 / qpstep=4 / cplxblur=20.0 / qblur=0.5 / vbv_maxrate=31250 / vbv_bufsize=31250 / nal_hrd=none / filler=0 / ip_ratio=1.40 / aq=3:1.00
Encoded date : UTC 1904-01-01 00:00:00
Tagged date : UTC 1904-01-01 00:00:00

Audio
ID : 2
Format : AAC
Format/Info : Advanced Audio Codec
Format profile : LC
Codec ID : 40
Duration : 2h 11mn
Bit rate mode : Constant
Bit rate : 224 Kbps
Channel(s) : 2 channels
Channel(s)_Original : 6 channels
Channel positions : Front: L C R, Side: L R, LFE
Sampling rate : 48.0 KHz
Compression mode : Lossy
Stream size : 211 MiB (13%)
Language : English
Encoded date : UTC 1904-01-01 00:00:00
Tagged date : UTC 1904-01-01 00:00:00

Menu #1
ID : 3
Codec ID : text
Duration : 2h 11mn
Language : English
Encoded date : UTC 1904-01-01 00:00:00
Tagged date : UTC 1904-01-01 00:00:00
Bit rate mode : CBR
00:00:00.000 : 00:00:00.000
00:04:05.163 : 00:04:05.120
00:05:59.861 : 00:05:59.818
00:09:08.841 : 00:09:08.798
00:11:55.883 : 00:11:55.840
00:17:32.720 : 00:17:32.677
00:23:21.234 : 00:23:21.191
00:27:36.072 : 00:27:36.029
00:33:10.281 : 00:33:10.238
00:37:06.726 : 00:37:06.683
00:41:31.031 : 00:41:30.988
00:45:47.413 : 00:45:47.370
00:51:57.824 : 00:51:57.781
00:56:01.818 : 00:56:01.775
01:00:56.362 : 01:00:56.319
01:03:50.578 : 01:03:50.535
01:07:29.297 : 01:07:29.254
01:11:19.235 : 01:11:19.192
01:15:32.863 : 01:15:32.820
01:20:15.103 : 01:20:15.060
01:27:47.514 : 01:27:47.471
01:30:17.330 : 01:30:17.287
01:34:04.056 : 01:34:04.013
01:38:29.947 : 01:38:29.904
01:40:52.589 : 01:40:52.546
01:44:13.165 : 01:44:13.122
01:51:51.915 : 01:51:51.872
01:56:51.256 : 01:56:51.213
02:01:02.757 : 02:01:02.714
02:04:05.189 : 02:04:05.146

Menu #2
00:00:00.043 : 00:00:00.000
00:04:05.163 : 00:04:05.120
00:05:59.861 : 00:05:59.818
00:09:08.841 : 00:09:08.798
00:11:55.883 : 00:11:55.840
00:17:32.720 : 00:17:32.677
00:23:21.234 : 00:23:21.191
00:27:36.072 : 00:27:36.029
00:33:10.281 : 00:33:10.238
00:37:06.726 : 00:37:06.683
00:41:31.031 : 00:41:30.988
00:45:47.413 : 00:45:47.370
00:51:57.824 : 00:51:57.781
00:56:01.818 : 00:56:01.775
01:00:56.362 : 01:00:56.319
01:03:50.578 : 01:03:50.535
01:07:29.297 : 01:07:29.254
01:11:19.235 : 01:11:19.192
01:15:32.863 : 01:15:32.820
01:20:15.103 : 01:20:15.060
01:27:47.514 : 01:27:47.471
01:30:17.330 : 01:30:17.287
01:34:04.056 : 01:34:04.013
01:38:29.947 : 01:38:29.904
01:40:52.589 : 01:40:52.546
01:44:13.165 : 01:44:13.122
01:51:51.915 : 01:51:51.872
01:56:51.256 : 01:56:51.213
02:01:02.757 : 02:01:02.714
02:04:05.189 : 02:04:05.146






						
									

Comments