True Grit 2010 1080p.BluRay.5.1.x264 . NVEE (download torrent) - TPB

True Grit 2010 1080p.BluRay.5.1.x264 . NVEE 

True Grit 2010 1080p.BluRay.5.1.x264 . NVEE
Type:
HD - Movies
Files:
2
Size:
2396.16 MiB

Info:
Spoken language(s):
English
Tag(s):

Uploaded:
2016-01-26 08:44:45
By:
.NVEE VIP

Seeders:
21
Leechers:
3
 
Info Hash:
 
9895BE10CCDE9F0ECFB9B5AEB5CDD4AF45A352F8


" width="622" height="51" frameborder="0" scrolling="no"> ?>

(Problems with magnets links are fixed by upgrading your torrent client!)
True Grit 2010 1080p.BluRay.5.1.x264 . NVEE

A tough U.S. Marshal helps a stubborn young woman track down her father's murderer.


							http://images.static-bluray.com/movies/covers/111446_front.jpg

Quick note :
Please seed to a Share Ratio of at least 1.1
If you require a torrent release I have posted in the past, not seeding,...
Please do not hesitate to inform me in any means you find fit to do so.
Torrent requests also "Always Welcome."

https://yuq.me/users/20/654/4l6NXGMOt2.png
FULL_INFOs

99.99% >>> SYNCED GUARANTEED 

"Totally scrutinized / analyzed to be a verified torrent."
___________________________________________

Source : Blu-ray ~ 1080p

https://yuq.me/users/20/654/Ywh1WtxsbR.png

Spoken Language : English

Audio : 6 ~ Channels Only

https://yuq.me/users/20/654/QPLusAOzaY.png
Subs Info :

x3 ~ Multisubs .srt

All .srt UTF-8 .idx & .ass subs can be turned On/Off
_____________________________________
---------------------------------------------------------------------------------
https://yuq.me/users/20/654/X7jy2PKhuo.png
General Metadata


Complete name : 	True Grit 2010.816p.BluRay.5.1.x264 . NVEE.mp4
Format : 	MPEG-4
Format profile : 	Base Media
Codec ID : 	isom
File size : 	2.34 GiB
Duration : 	1h 50mn
Overall bit rate : 	3 036 Kbps
Encoded date : 	UTC 2014-08-27 15:49:33
Tagged date : 	UTC 2014-08-27 15:49:33

https://yuq.me/users/20/654/RfkyWPHlaJ.png
Video

ID : 	1
Format : 	AVC
Format/Info : 	Advanced Video Codec
Format profile : 	[email protected]
Format settings, CABAC : 	Yes
Format settings, ReFrames : 	3 frames
Codec ID : 	avc1
Codec ID/Info : 	Advanced Video Coding
Duration : 	1h 50mn
Bit rate : 	2 394 Kbps
Maximum bit rate : 	15.3 Mbps
Width : 	1 920 pixels
Height : 	816 pixels
Display aspect ratio : 	2.35:1
Frame rate mode : 	Constant
Frame rate : 	23.976 fps
Color space : 	YUV
Chroma subsampling : 	4:2:0
Bit depth : 	8 bits
Scan type : 	Progressive
Bits/(Pixel*Frame) : 	0.064
Stream size : 	1.84 GiB (79%)
Writing library : 	x264 core 142 r2453 ea0ca51
Encoded from Physical Blu-ray / Region A

https://yuq.me/users/20/654/LvPcins26I.png
Audio

ID : 	2
Format : 	AC-3
Format/Info : 	Audio Coding 3
Mode extension : 	CM (complete main)
Format settings, Endianness : 	Big
Codec ID : 	ac-3
Duration : 	1h 50mn
Bit rate mode : 	Constant
Bit rate : 	640 Kbps
Channel(s) : 	6 channels
Channel positions : 	Front: L C R, Side: L R, LFE
Sampling rate : 	48.0 KHz
Bit depth : 	16 bits
Compression mode : 	Lossy
Stream size : 	505 MiB (21%)
Language : 	English
Encoded date : 	UTC 2014-08-27 15:54:59
Tagged date : 	UTC 2014-08-27 15:56:17
Encoded from Physical Blu-ray 6 Channel audio "Always".

https://yuq.me/users/20/654/ZfyB5QgvTX.gif

https://yuq.me/users/20/654/KYOS3wvMEq.gif

https://yuq.me/users/20/654/FheD2NgmCi.gif

https://yuq.me/users/20/654/IWkVXCf5Bz.png

Enj0y !
						
									

Comments