The Secret in Their Eyes 2009 1080p BluRay x264-NODLABS (download torrent) - TPB

The Secret in Their Eyes 2009 1080p BluRay x264-NODLABS 

The Secret in Their Eyes 2009 1080p BluRay x264-NODLABS
Type:
Movies DVDR
Files:
2
Size:
8130.56 MiB

Info:
Spoken language(s):
Tag(s):

Uploaded:
2016-01-26 08:45:01
By:
z0n321 VIP

Seeders:
0
Leechers:
0
 
Info Hash:
 
818E454F12D4A0E45F49EF6E69265DAACF9C8DFA


" width="622" height="51" frameborder="0" scrolling="no"> ?>

(Problems with magnets links are fixed by upgrading your torrent client!)
The Secret in Their Eyes 2009 1080p BluRay x264-NODLABS

A retired legal counselor writes a novel hoping to find closure for one of his past unresolved homicide cases and for his unreciprocated love with his superior - both of which still haunt him decades later.


							 ÛÛÛÝ Û The.Secret.in.Their.Eyes.2009.1080p.BluRay.x264-NODLABS Û ÞÛÛÛ
 Þ²ÛÛ Û Û ÛÛ²Ý
 Þ²ÛÛ Û Û ÛÛ²Ý
 Þ²±Û Û Release date ...: March 2010 Û Û±²Ý
 Þ²ÛÛ Û Theater Date....: ARS 2,883,567 (Argentina) (16/08/09) (66 Screens)
 Þ²ÛÛ Û IMDB Rating.....: 8.4/10 (6,580 votes) Û ÛÛ²Ý
 ÛÛÛÝ Û Duration .......: 02:09:15	 Û ÞÛÛÛ
 Û ÛÛ Video Format ...: x264 ÛÛ Û
 ÞÛÛÛ ÞÛ Video Bitrate ..: 8159kbps ÛÝ ÛÛÛÝ
 Þ²ÛÛ Û Resolution .....: 1920x816 Û ÛÛ²Ý
 Þ²ÛÛ Û Frame Rate .....: 24.000fps Û ÛÛ²Ý
 Þ²°Û Û Language .......: Spanish Û Û°²Ý
 Þ²°Û Û Subs ...........: English / Spanish Û Û°²Ý
 Þ²±Û Û Sound Bitrate ..: 640kbps Û Û±²Ý
 Þ²±Û Û Sound Format ...: AC3 Û Û±²Ý
 Þ²ÛÛ Û Release size ...: 7.95gb Û ÛÛ²Ý
 ÛÛÛÝ Û Source .........: Blu-Ray Region B Retail Û ÞÛÛÛ
 ÞÛÛÛ ÞÛ Genre ..........: Crime / Drama / Mystery / Romance ÛÝ ÛÛÛÝ
 Û ÛÛ ÛÛ Û
 ÞÛÛÛ ÞÛ URL ............. http://www.imdb.com/title/tt1305806/ ÛÝ ÛÛÛÝÝ

Screens:
http://imagecurl.com/images/49395484814466473185_thumb.png
http://imagecurl.com/images/99434138666744362587_thumb.png
http://imagecurl.com/images/46811485308428342744_thumb.png
http://imagecurl.com/images/36764551815427426410_thumb.png
http://imagecurl.com/images/46929370899044219623_thumb.png
http://imagecurl.com/images/98561521696894819171_thumb.png

[mediainfo]

Video
ID : 1
Format : AVC
Format/Info : Advanced Video Codec
Format profile : [email protected]
Format settings, CABAC : Yes
Format settings, ReFrames : 5 frames
Codec ID : V_MPEG4/ISO/AVC
Duration : 2h 9mn
Bit rate : 8 159 Kbps
Width : 1 920 pixels
Height : 816 pixels
Display aspect ratio : 2.35:1
Frame rate mode : Constant
Frame rate : 24.000 fps
Color space : YUV
Chroma subsampling : 4:2:0
Bit depth : 8 bits
Scan type : Progressive
Bits/(Pixel*Frame) : 0.217
Stream size : 7.21 GiB (91%)
Writing library : x264 core 88 r1471 1144615
Encoding settings : cabac=1 / ref=5 / deblock=1:0:0 / analyse=0x3:0x133 / me=umh / subme=7 / psy=1 / psy_rd=1.00:0.00 / mixed_ref=1 / me_range=16 / chroma_me=1 / trellis=1 / 8x8dct=1 / cqm=0 / deadzone=21,11 / fast_pskip=0 / chroma_qp_offset=-2 / threads=12 / sliced_threads=0 / nr=0 / decimate=1 / mbaff=0 / constrained_intra=0 / bframes=3 / b_pyramid=2 / b_adapt=1 / b_bias=0 / direct=1 / wpredb=1 / wpredp=2 / keyint=240 / keyint_min=24 / scenecut=40 / intra_refresh=0 / rc_lookahead=40 / rc=2pass / mbtree=1 / bitrate=8159 / ratetol=1.0 / qcomp=0.60 / qpmin=10 / qpmax=51 / qpstep=4 / cplxblur=20.0 / qblur=0.5 / ip_ratio=1.40 / aq=1:1.00
Language : English
Default : Yes
Forced : No

Audio
ID : 2
Format : AC-3
Format/Info : Audio Coding 3
Mode extension : CM (complete main)
Format settings, Endianness : Big
Codec ID : A_AC3
Duration : 2h 9mn
Bit rate mode : Constant
Bit rate : 640 Kbps
Channel(s) : 6 channels
Channel positions : Front: L C R, Side: L R, LFE
Sampling rate : 48.0 KHz
Bit depth : 16 bits
Compression mode : Lossy
Stream size : 592 MiB (7%)
Title : Spanish AC3 640kbps
Language : Spanish
Default : Yes
Forced : No

Text #1
ID : 3
Format : UTF-8
Codec ID : S_TEXT/UTF8
Codec ID/Info : UTF-8 Plain Text
Title : English
Language : English
Default : Yes
Forced : No

Text #2
ID : 4
Format : UTF-8
Codec ID : S_TEXT/UTF8
Codec ID/Info : UTF-8 Plain Text
Title : Spanish
Language : Spanish
Default : No
Forced : No

Menu
00:00:00.000 : en:00:00:00.000
00:16:40.125 : en:00:16:40.125
00:31:47.792 : en:00:31:47.792
00:47:19.958 : en:00:47:19.958
01:00:37.667 : en:01:00:37.667
01:19:06.125 : en:01:19:06.125
01:34:59.750 : en:01:34:59.750
01:49:53.458 : en:01:49:53.458

[/mediainfo]
						
									

Comments