Monty Python and the Holy Grail 1974 1080p BluRay X264-AMIABLE (download torrent) - TPB

Monty Python and the Holy Grail 1974 1080p BluRay X264-AMIABLE 

Monty Python and the Holy Grail 1974 1080p BluRay X264-AMIABLE
Type:
Movies DVDR
Files:
2
Size:
6737.92 MiB

Info:
Spoken language(s):
Tag(s):

Uploaded:
2016-01-26 08:45:02
By:
z0n321 VIP

Seeders:
1
Leechers:
0
 
Info Hash:
 
8B6C998378C18FD74450B5927636E029FCC1A813


" width="622" height="51" frameborder="0" scrolling="no"> ?>

(Problems with magnets links are fixed by upgrading your torrent client!)
Monty Python and the Holy Grail 1974 1080p BluRay X264-AMIABLE

King Arthur and his knights embark on a low-budget search for the Grail, encountering many very silly obstacles.


								 
 __ .---.
 __ / ` .-.7,--.
 / `. .-''. -, , \
 '--.- -; | ) /
 ,` / \ ,_) / '-. 
 / ( ( | / .' ) \ AMIABLE proudly presents:
 '. `--,/ .---' ,-.| 
 `--. / '-, -' .' Monty.Python.and.the.Holy.Grail.1974.1080p.BluRay.X264-AMIABLE
 .==,=; `-,.;--' 
 / ,' _;--;| Date .....: 23rd February 2012
 /_...=' you are my Runtime ..: 01:32:08
 || .==,=. Size .....: 6720mb
 ||/ '.\ Video ....: 1808x1080 (X264 @ 23.976fps)
 ,||`'=...__\ Audio ....: DTS 1509kbps
 || Source ...: Retail Blu-Ray
 sweetest downfall.. Lang .....: English 
 ||, Subs .....: English / French / Spanish / Portuguese / Japanese / Chinese / Korean / Thai
 || IMDB .....: http://www.imdb.com/title/tt0071853/
 ,|| Rating ...: 8.4/10 196,686 votes
 || Screens ..: Opening Week - 1974
 I loved you first Genre ....: Adventure | Comedy
 || 
 ||, Notes ....: <3 The Pythons. The vobsubs contain "alternative" english subtitles
 || on stream 3. It's hard to explain. Just try it :) 

 


 Tomorrow's just your future yesterday! 
 
 

Screens:
http://imagecurl.com/images/85480193212962681960_thumb.png
http://imagecurl.com/images/67334360520556037898_thumb.png
http://imagecurl.com/images/56105790745396515448_thumb.png
http://imagecurl.com/images/06716264331952067151_thumb.png
http://imagecurl.com/images/73768943500785922503_thumb.png
http://imagecurl.com/images/47206713507158372089_thumb.png

[mediainfo]

Video
ID : 1
Format : AVC
Format/Info : Advanced Video Codec
Format profile : [email protected]
Format settings, CABAC : Yes
Format settings, ReFrames : 4 frames
Codec ID : V_MPEG4/ISO/AVC
Duration : 1h 32mn
Bit rate : 8 682 Kbps
Width : 1 808 pixels
Height : 1 080 pixels
Display aspect ratio : 1.674
Frame rate mode : Constant
Frame rate : 23.976 fps
Color space : YUV
Chroma subsampling : 4:2:0
Bit depth : 8 bits
Scan type : Progressive
Bits/(Pixel*Frame) : 0.185
Stream size : 5.46 GiB (83%)
Writing library : x264 core 120 r2164 da19765
Encoding settings : cabac=1 / ref=4 / deblock=1:0:0 / analyse=0x3:0x113 / me=umh / subme=8 / psy=1 / psy_rd=1.00:0.00 / mixed_ref=1 / me_range=16 / chroma_me=1 / trellis=1 / 8x8dct=1 / cqm=0 / deadzone=21,11 / fast_pskip=1 / chroma_qp_offset=-2 / threads=12 / sliced_threads=0 / nr=0 / decimate=1 / interlaced=0 / bluray_compat=0 / constrained_intra=0 / bframes=3 / b_pyramid=2 / b_adapt=2 / b_bias=0 / direct=3 / weightb=1 / open_gop=0 / weightp=2 / keyint=240 / keyint_min=24 / scenecut=40 / intra_refresh=0 / rc_lookahead=50 / rc=2pass / mbtree=1 / bitrate=8682 / ratetol=1.0 / qcomp=0.60 / qpmin=0 / qpmax=69 / qpstep=4 / cplxblur=20.0 / qblur=0.5 / ip_ratio=1.40 / aq=1:1.00
Language : English
Default : Yes
Forced : No

Audio
ID : 2
Format : DTS
Format/Info : Digital Theater Systems
Mode : 16
Format settings, Endianness : Big
Codec ID : A_DTS
Duration : 1h 32mn
Bit rate mode : Constant
Bit rate : 1 509 Kbps
Channel(s) : 6 channels
Channel positions : Front: L C R, Side: L R, LFE
Sampling rate : 48.0 KHz
Bit depth : 24 bits
Compression mode : Lossy
Stream size : 994 MiB (15%)
Language : English
Default : Yes
Forced : No

Text
ID : 3
Format : UTF-8
Codec ID : S_TEXT/UTF8
Codec ID/Info : UTF-8 Plain Text
Language : English
Default : No
Forced : No

Menu
00:00:00.000 : en:00:00:00.000
00:03:36.299 : en:00:03:36.299
00:06:53.496 : en:00:06:53.496
00:08:49.154 : en:00:08:49.154
00:12:00.178 : en:00:12:00.178
00:16:30.823 : en:00:16:30.823
00:22:02.655 : en:00:22:02.655
00:23:42.630 : en:00:23:42.630
00:25:19.935 : en:00:25:19.935
00:29:11.166 : en:00:29:11.166
00:32:01.002 : en:00:32:01.002
00:35:36.843 : en:00:35:36.843
00:43:05.124 : en:00:43:05.124
00:44:31.002 : en:00:44:31.002
00:46:27.660 : en:00:46:27.660
00:53:37.423 : en:00:53:37.423
00:57:31.406 : en:00:57:31.406
01:00:33.630 : en:01:00:33.630
01:02:13.021 : en:01:02:13.021
01:04:24.110 : en:01:04:24.110
01:09:32.585 : en:01:09:32.585
01:12:02.860 : en:01:12:02.860
01:14:56.534 : en:01:14:56.534
01:18:00.926 : en:01:18:00.926
01:22:17.307 : en:01:22:17.307
01:24:26.603 : en:01:24:26.603
01:26:25.889 : en:01:26:25.889
01:28:09.743 : en:01:28:09.743

[/mediainfo]
						
									

Comments