The Usual Suspects - I Soliti Sospetti (1995) DVDrip XviD - Italian English Ac3 5 1 Sub ita MIRCrew (download torrent) - TPB

The Usual Suspects - I Soliti Sospetti (1995) DVDrip XviD - Italian English Ac3 5 1 Sub ita MIRCrew 

The Usual Suspects - I Soliti Sospetti (1995) DVDrip XviD - Italian English Ac3 5 1 Sub ita MIRCrew
Type:
Movies
Files:
2
Size:
1474.56 MiB

Info:
Spoken language(s):
Tag(s):

Uploaded:
2016-01-26 08:45:07
By:
robbyrs VIP

Seeders:
2
Leechers:
2
 
Info Hash:
 
02529EB983D237CD9B21101B154ED781FCEAA137




(Problems with magnets links are fixed by upgrading your torrent client!)
The Usual Suspects - I Soliti Sospetti (1995) DVDrip XviD - Italian English Ac3 5 1 Sub ita MIRCrew

A sole survivor tells of the twisty events leading up to a horrific gun battle on a boat, which begin when five criminals meet at a seemingly random police lineup.


							The Usual Suspects - I Soliti Sospetti (1995).DVDrip.XviD - Italian English.Ac3.5.1.Sub.ita.MIRCrew



http://s19.postimg.org/w9ws99nmb/banner_mircrew_original_2.png

NO FOUND ONLY ORIGINAL RELEASE

I Soliti Sospetti - The Usual Suspects (1995)


http://i.imgur.com/mkAgMl1.png


http://www.userlogos.org/files/logos/Sucka/imdb_new.png 

http://s19.postimg.org/vz5tzn42b/1_scheda.png

Titolo originale 	The Usual Suspects
Lingua originale 	Inglese
Paese di produzione 	USA
Anno 	1995
Durata 	105 min
Rapporto 	2,35:1
Genere 	giallo, thriller
Regia 	Bryan Singer
Soggetto 	Christopher McQuarrie
Sceneggiatura 	Christopher McQuarrie
Fotografia 	Newton Thomas Sigel
Montaggio 	John Ottman
Effetti speciali 	Roy Downey
Musiche 	John Ottman
Scenografia 	David Lazan

http://s19.postimg.org/q8fnlww2b/1_cast.png


 Kevin Spacey: Roger "Verbal" Kint
 Gabriel Byrne: Dean Keaton
 Chazz Palminteri: David Kujan
 Kevin Pollak: Todd Hockney
 Pete Postlethwaite: Kobayashi
 Stephen Baldwin: Ray McManus
 Benicio Del Toro: Fenster
 Peter Greene: Redfoot
 Suzy Amis: Edie Finneran
 Clark Gregg: Dr. Walters
 Dan Hedaya: Sgt. Jeffrey 'Jeff' Rabin
 Giancarlo Esposito: Jack Baer, FBI
 Michelle Clunie: Sketch Artist
 Paul Bartel: Smuggler

 
http://s19.postimg.org/okgi79i6r/1_trama.png. 

In seguito all'esplosione di una nave sospettata di trasportare droga nel porto di San Pedro a Los Angeles, il piccolo truffatore invalido Roger "Verbal" Kint, implicato nella vicenda, ma già prosciolto dal procuratore, viene costretto a subire un ultimo interrogatorio dall'agente di polizia doganale David Kujan. La storia viene presentata come la ricostruzione della deposizione di "Verbal" Kint, e si alterna con scene della deposizione stessa..........

http://s19.postimg.org/fzn6g380j/1_story.png

A sole survivor tells of the twisty events leading up to a horrific gun battle on a boat, which begin when five criminals meet at a seemingly random police lineup..................

http://s16.postimg.org/x30b3lr7l/vlcsnap_2015_07_11_18h31m38s47.jpg http://s2.postimg.org/5jh52lyyt/vlcsnap_2015_07_11_18h31m10s19.jpg http://s10.postimg.org/yl810mevp/vlcsnap_2015_07_11_18h30m53s103.jpg

http://img153.imageshack.us/img153/3158/restateinseedblood.gif


http://imgur.com/lvhU6.gif


http://s19.postimg.org/a2jaz9qvn/1_dati.png


toggle spoiler
General
Complete name : I Soliti Sospetti - The Usual Suspects (1995).ita.eng.sub.ita.eng.MIRCrew\I Soliti Sospetti - The Usual Suspects (1995).ita.eng.sub.ita.eng.MIRCrew.avi
Format : AVI
Format/Info : Audio Video Interleave
File size : 1.44 GiB
Duration : 1h 41mn
Overall bit rate : 2 025 Kbps
Movie name : MIRCrew by robbyrs
Writing application : VirtualDubMod 1.5.10.2 (build 2540/release)
Writing library : VirtualDubMod build 2540/release

Video
ID : 0
Format : MPEG-4 Visual
Format profile : [email protected]
Format settings, BVOP : No
Format settings, QPel : No
Format settings, GMC : No warppoints
Format settings, Matrix : Default (H.263)
Codec ID : XVID
Codec ID/Hint : XviD
Duration : 1h 41mn
Bit rate : 1 500 Kbps
Width : 720 pixels
Height : 304 pixels
Display aspect ratio : 2.35:1
Frame rate : 25.000 fps
Color space : YUV
Chroma subsampling : 4:2:0
Bit depth : 8 bits
Scan type : Progressive
Compression mode : Lossy
Bits/(Pixel*Frame) : 0.274
Stream size : 1.07 GiB (74%)
Writing library : XviD 64

Audio #1
ID : 1
Format : AC-3
Format/Info : Audio Coding 3
Mode extension : CM (complete main)
Codec ID : 2000
Duration : 1h 41mn
Bit rate mode : Constant
Bit rate : 256 Kbps
Channel(s) : 2 channels
Channel positions : Front: L R
Sampling rate : 48.0 KHz
Bit depth : 16 bits
Compression mode : Lossy
Stream size : 185 MiB (13%)
Alignment : Split accross interleaves
Interleave, duration : 40 ms (1.01 video frame)
Interleave, preload duration : 500 ms

Audio #2
ID : 2
Format : AC-3
Format/Info : Audio Coding 3
Mode extension : CM (complete main)
Codec ID : 2000
Duration : 1h 41mn
Bit rate mode : Constant
Bit rate : 256 Kbps
Channel(s) : 2 channels
Channel positions : Front: L R
Sampling rate : 48.0 KHz
Bit depth : 16 bits
Compression mode : Lossy
Stream size : 186 MiB (13%)
Alignment : Split accross interleaves
Interleave, duration : 40 ms (1.00 video frame)
Interleave, preload duration : 500 ms







						
									

Comments