Monty Pythons Life of Brian 1979 1080p BluRay H264 AAC-RARBG (download torrent) - TPB

Monty Pythons Life of Brian 1979 1080p BluRay H264 AAC-RARBG 

Monty Pythons Life of Brian 1979 1080p BluRay H264 AAC-RARBG
Type:
HD - Movies
Files:
2
Size:
1832.96 MiB

Info:
Spoken language(s):
Tag(s):

Uploaded:
2016-01-26 08:45:07
By:
z0n321 VIP

Seeders:
7
Leechers:
0
 
Info Hash:
 
D03ADA6DFB7AFD52CBDECC6BB18DB67405B865D8


" width="622" height="51" frameborder="0" scrolling="no"> ?>

(Problems with magnets links are fixed by upgrading your torrent client!)
Monty Pythons Life of Brian 1979 1080p BluRay H264 AAC-RARBG

Brian is born on the original Christmas, in the stable next door. He spends his life being mistaken for a messiah.


							Monty.Pythons.Life.of.Brian.1979.1080p.BluRay.H264.AAC-RARBG

//dyncdn.me/posters2/d/d03ada6dfb7afd52cbdecc6bb18db67405b865d8.jpg
Screens :

http://imagecurl.com/images/09967193581491327172_thumb.png

http://imagecurl.com/images/27341479882578979231_thumb.png

http://imagecurl.com/images/25729111255386309263_thumb.png

http://imagecurl.com/images/67830224741477070415_thumb.png

http://imagecurl.com/images/53652359755389318013_thumb.png
Mediainfo :

Video
ID : 1
Format : AVC
Format/Info : Advanced Video Codec
Format profile : [email protected]
Format settings, CABAC : Yes
Format settings, ReFrames : 4 frames
Codec ID : avc1
Codec ID/Info : Advanced Video Coding
Duration : 1h 33mn
Bit rate : 2 500 Kbps
Width : 1 920 pixels
Height : 1 040 pixels
Display aspect ratio : 1.85:1
Frame rate mode : Constant
Frame rate : 23.976 fps
Color space : YUV
Chroma subsampling : 4:2:0
Bit depth : 8 bits
Scan type : Progressive
Bits/(Pixel*Frame) : 0.052
Stream size : 1.64 GiB (92%)
Writing library : x264 core 144 r2525M 40bb568
Encoding settings : cabac=1 / ref=4 / deblock=1:-1:-1 / analyse=0x3:0x113 / me=umh / subme=9 / psy=1 / psy_rd=1.00:0.15 / mixed_ref=1 / me_range=24 / chroma_me=1 / trellis=2 / 8x8dct=1 / cqm=0 / deadzone=21,11 / fast_pskip=1 / chroma_qp_offset=-3 / threads=32 / lookahead_threads=4 / sliced_threads=0 / nr=0 / decimate=1 / interlaced=0 / bluray_compat=0 / constrained_intra=0 / bframes=3 / b_pyramid=2 / b_adapt=1 / b_bias=0 / direct=1 / weightb=1 / open_gop=0 / weightp=2 / keyint=250 / keyint_min=25 / scenecut=40 / intra_refresh=0 / rc_lookahead=50 / rc=2pass / mbtree=1 / bitrate=2500 / ratetol=1.0 / qcomp=0.60 / qpmin=0 / qpmax=69 / qpstep=4 / cplxblur=20.0 / qblur=0.5 / vbv_maxrate=31250 / vbv_bufsize=31250 / nal_hrd=none / filler=0 / ip_ratio=1.40 / aq=3:1.00
Encoded date : UTC 1904-01-01 00:00:00
Tagged date : UTC 1904-01-01 00:00:00

Audio
ID : 2
Format : AAC
Format/Info : Advanced Audio Codec
Format profile : LC
Codec ID : 40
Duration : 1h 33mn
Duration_LastFrame : 43ms
Bit rate mode : Constant
Bit rate : 224 Kbps
Channel(s) : 2 channels
Channel(s)_Original : 6 channels
Channel positions : Front: L C R, Side: L R, LFE
Sampling rate : 48.0 KHz
Compression mode : Lossy
Stream size : 150 MiB (8%)
Encoded date : UTC 1904-01-01 00:00:00
Tagged date : UTC 1904-01-01 00:00:00



						
									

Comments