Apartment 1303 2012 720p BluRay H264 AAC-RARBG (download torrent) - TPB

Apartment 1303 2012 720p BluRay H264 AAC-RARBG 

Apartment 1303 2012 720p BluRay H264 AAC-RARBG
Type:
HD - Movies
Files:
2
Size:
1054.72 MiB

Info:
Spoken language(s):
English
Tag(s):

Uploaded:
2016-01-26 08:45:18
By:
z0n321 VIP

Seeders:
0
Leechers:
1
 
Info Hash:
 
8A2DED2274DFA5EB2DEE0EA83B7819165C5E690B




(Problems with magnets links are fixed by upgrading your torrent client!)
Apartment 1303 2012 720p BluRay H264 AAC-RARBG

A modern ghost story which turns a love/hate relationship between mother and daughter into a tale of horror. Some rentals are too good to be true.


							
https://rarbg.to
Apartment.1303.2012.720p.BluRay.H264.AAC-RARBG

//dyncdn.me/posters2/8/8a2ded2274dfa5eb2dee0ea83b7819165c5e690b.jpg
Screens :

http://imagecurl.com/images/39835375232297989369_thumb.png

http://imagecurl.com/images/98415564701116469965_thumb.png

http://imagecurl.com/images/27193582167693260565_thumb.png

http://imagecurl.com/images/56497056951846453099_thumb.png

http://imagecurl.com/images/41168062662861776354_thumb.png
Mediainfo :

Video
ID : 1
Format : AVC
Format/Info : Advanced Video Codec
Format profile : [email protected]
Format settings, CABAC : Yes
Format settings, ReFrames : 4 frames
Codec ID : avc1
Codec ID/Info : Advanced Video Coding
Duration : 1h 25mn
Bit rate : 1 500 Kbps
Width : 1 280 pixels
Height : 534 pixels
Display aspect ratio : 2.40:1
Frame rate mode : Constant
Frame rate : 23.976 (23976/1000) fps
Color space : YUV
Chroma subsampling : 4:2:0
Bit depth : 8 bits
Scan type : Progressive
Bits/(Pixel*Frame) : 0.092
Stream size : 914 MiB (87%)
Writing library : x264 core 148 r2638M 7599210
Encoding settings : cabac=1 / ref=4 / deblock=1:-1:-1 / analyse=0x3:0x113 / me=umh / subme=9 / psy=1 / psy_rd=1.00:0.15 / mixed_ref=1 / me_range=24 / chroma_me=1 / trellis=2 / 8x8dct=1 / cqm=0 / deadzone=21,11 / fast_pskip=1 / chroma_qp_offset=-3 / threads=32 / lookahead_threads=4 / sliced_threads=0 / nr=0 / decimate=1 / interlaced=0 / bluray_compat=0 / constrained_intra=0 / bframes=3 / b_pyramid=2 / b_adapt=2 / b_bias=0 / direct=3 / weightb=1 / open_gop=0 / weightp=2 / keyint=250 / keyint_min=25 / scenecut=40 / intra_refresh=0 / rc_lookahead=50 / rc=2pass / mbtree=1 / bitrate=1500 / ratetol=1.0 / qcomp=0.60 / qpmin=0 / qpmax=69 / qpstep=4 / cplxblur=20.0 / qblur=0.5 / vbv_maxrate=31250 / vbv_bufsize=31250 / nal_hrd=none / filler=0 / ip_ratio=1.40 / aq=3:1.00
Encoded date : UTC 2016-01-07 15:30:23
Tagged date : UTC 2016-01-07 15:30:23

Audio
ID : 2
Format : AAC
Format/Info : Advanced Audio Codec
Format profile : LC
Codec ID : 40
Duration : 1h 25mn
Bit rate mode : Constant
Bit rate : 224 Kbps
Channel(s) : 2 channels
Channel(s)_Original : 6 channels
Channel positions : Front: L C R, Side: L R, LFE
Sampling rate : 48.0 KHz
Frame rate : 46.875 fps (1024 spf)
Compression mode : Lossy
Stream size : 137 MiB (13%)
Language : English
Default : Yes
Alternate group : 1
Encoded date : UTC 2016-01-07 15:30:23
Tagged date : UTC 2016-01-07 15:30:23



						
									

Comments