The Benefactor 2015 WEB-DL XviD MP3-FGT (download torrent) - TPB

The Benefactor 2015 WEB-DL XviD MP3-FGT 

The Benefactor 2015 WEB-DL XviD MP3-FGT
Type:
Movies
Files:
2
Size:
1075.2 MiB

Info:
Spoken language(s):
English
Tag(s):

Uploaded:
2016-01-26 08:45:19
By:
z0n321 VIP

Seeders:
0
Leechers:
0
 
Info Hash:
 
06AF66B39154C6C121FA3F2F00D7DB8904FE83F9




(Problems with magnets links are fixed by upgrading your torrent client!)
The Benefactor 2015 WEB-DL XviD MP3-FGT

A philanthropist meddles in the lives of newly-married couples in an attempt to relive his past.


							

https://rarbg.to/


http://imagecurl.com/images/14336399324557018752_thumb.png
http://imagecurl.com/images/67484487262063699036_thumb.png
http://imagecurl.com/images/18810992179440617361_thumb.png
http://imagecurl.com/images/38272734714202897791_thumb.png
http://imagecurl.com/images/57833187361735174017_thumb.png
http://imagecurl.com/images/70299241369935220029_thumb.png



[mediainfo]
Video
ID : 0
Format : MPEG-4 Visual
Format profile : [email protected]
Format settings, BVOP : No
Format settings, QPel : No
Format settings, GMC : No warppoints
Format settings, Matrix : Default (H.263)
Codec ID : XVID
Codec ID/Hint : XviD
Duration : 1h 32mn
Bit rate : 1 412 Kbps
Width : 720 pixels
Height : 304 pixels
Display aspect ratio : 2.40:1
Frame rate : 23.976 fps
Color space : YUV
Chroma subsampling : 4:2:0
Bit depth : 8 bits
Scan type : Progressive
Compression mode : Lossy
Bits/(Pixel*Frame) : 0.269
Stream size : 937 MiB (87%)
Writing library : Lavc56.13.100

Audio
ID : 1
Format : MPEG Audio
Format version : Version 1
Format profile : Layer 3
Mode : Joint stereo
Mode extension : MS Stereo
Codec ID : 55
Codec ID/Hint : MP3
Duration : 1h 32mn
Bit rate mode : Constant
Bit rate : 192 Kbps
Channel(s) : 2 channels
Sampling rate : 48.0 KHz
Compression mode : Lossy
Stream size : 127 MiB (12%)
Alignment : Aligned on interleaves
Interleave, duration : 24 ms (0.58 video frame)
Interleave, preload duration : 504 ms
Writing library : LAME3.99.5



[/mediainfo]

						
									

Comments